osu file format v14

[General]
AudioFilename: PV.mp3
AudioLeadIn: 1500
PreviewTime: 63576
Countdown: 0
SampleSet: Soft
StackLeniency: 0.7
Mode: 0
LetterboxInBreaks: 0
WidescreenStoryboard: 0

[Editor]
DistanceSpacing: 2
BeatDivisor: 4
GridSize: 4
TimelineZoom: 1.7

[Metadata]
Title:Ai no Scenario
TitleUnicode:アイのシナリオ
Artist:CHiCO with HoneyWorks
ArtistUnicode:CHiCO with HoneyWorks
Creator:eINess
Version:wkyik's Insane
Source:まじっく快斗1412
Tags:opening Magic Kaito A-1 Pictures Inc Karia Kocari Gaia Kawaiwkyik [_Zzz_] appleeaterx Rizia
BeatmapID:661902
BeatmapSetID:287336

[Difficulty]
HPDrainRate:7
CircleSize:4
OverallDifficulty:8
ApproachRate:9
SliderMultiplier:1.8
SliderTickRate:1

[Events]
//Background and Video events
0,0,"BG-0090.jpg",0,0
Video,-150,"Video.avi",0,0
//Break Periods
//Storyboard Layer 0 (Background)
//Storyboard Layer 1 (Fail)
//Storyboard Layer 2 (Pass)
//Storyboard Layer 3 (Foreground)
//Storyboard Sound Samples

[TimingPoints]
577,333.333333333333,4,2,99,80,1,0
10743,-133.333333333333,4,2,99,40,0,0
11243,-133.333333333333,4,2,99,60,0,0
16576,-100,4,2,99,80,0,0
31910,-100,4,2,99,60,0,0
32576,-100,4,2,99,80,0,0
43243,-133.333333333333,4,2,99,80,0,0
52576,-100,4,2,99,80,0,0
53410,-100,4,2,99,60,0,0
53910,-100,4,2,99,80,0,0
58076,-100,4,2,99,50,0,0
58576,-100,4,2,99,60,0,0
58910,-100,4,2,99,70,0,0
59243,-166.666666666667,4,2,99,80,0,0
59576,-166.666666666667,4,2,99,60,0,0
61910,-125,4,2,99,80,0,0
63576,-125,4,2,99,40,0,0
64576,-100,4,2,99,80,0,1
74743,-100,4,2,99,60,0,1
75243,-100,4,2,99,80,0,1
86910,-100,4,2,99,80,0,0
86993,-100,4,2,99,20,0,0

[Colours]
Combo1 : 0,0,147
Combo2 : 111,183,255
Combo3 : 128,0,255
Combo4 : 0,128,192

[HitObjects]
168,296,577,6,0,B|148:264|147:227|160:196,1,90,4|0,0:0|0:0,0:0:0:0:
236,152,910,2,0,B|256:184|257:221|244:252,1,90,2|0,0:0|0:0,0:0:0:0:
160,312,1243,2,0,L|60:324,2,90,2|0|2,0:0|0:0|0:0,0:0:0:0:
276,360,1743,1,0,0:0:0:0:
276,360,1910,6,0,B|278:267|304:180,2,180,2|2|2,0:0|0:0|0:0,0:0:0:0:
360,332,2743,1,0,0:0:0:0:
188,296,2910,1,2,0:0:0:0:
328,212,3076,1,0,0:0:0:0:
236,364,3243,6,0,B|179:373|122:384,1,90,2|0,0:0|0:0,0:0:0:0:
16,280,3576,2,0,B|73:289|130:300,1,90,2|0,0:0|0:0,0:0:0:0:
256,256,3910,2,0,B|288:216|286:160|255:120|213:104,1,180,2|2,0:0|0:0,0:0:0:0:
120,156,4410,1,0,0:0:0:0:
264,276,4576,6,0,B|318:276|368:256,1,90,2|0,0:0|0:0,0:0:0:0:
472,280,4910,2,0,B|472:226|452:176,1,90,2|0,0:0|0:0,0:0:0:0:
364,92,5243,1,2,0:0:0:0:
352,192,5410,1,8,0:0:0:0:
512,144,5576,1,2,0:0:0:0:
456,68,5743,1,8,0:0:0:0:
280,136,5910,6,0,B|244:154|202:145|175:115|168:81,1,135,4|0,0:0|0:0,0:0:0:0:
152,72,6243,2,0,L|136:184,1,90,2|0,0:0|0:0,0:0:0:0:
88,256,6576,1,2,0:0:0:0:
148,340,6743,2,0,B|206:334|260:316,1,90,0|2,0:0|0:0,0:0:0:0:
400,256,7076,6,0,B|312:223|220:228,1,180,,,0:0:0:0:
56,140,7576,2,0,B|97:83|179:78|228:128,1,180,2|2,0:0|0:0,0:0:0:0:
268,228,8076,1,0,0:0:0:0:
215,117,8243,2,0,B|204:62|204:8,1,90,6|0,0:0|0:0,0:0:0:0:
306,132,8576,5,12,0:0:0:0:
282,265,8743,1,2,0:0:0:0:
179,178,8910,1,2,0:0:0:0:
332,205,9076,5,12,0:0:0:0:
205,251,9243,1,2,0:0:0:0:
229,118,9410,1,2,0:0:0:0:
356,280,9576,5,12,0:0:0:0:
192,352,10743,2,0,L|184:312,2,33.7500012874604,0|0|0,3:0|3:0|3:0,0:0:0:0:
324,360,11243,5,0,0:0:0:0:
324,360,11410,2,0,B|331:285|352:216,1,135.000005149842,,,0:0:0:0:
256,244,11910,2,0,B|215:266|165:251|140:210|144:170,1,135.000005149842,,,0:0:0:0:
124,116,12410,1,0,0:0:0:0:
124,116,12576,6,0,B|124:69|136:24,1,67.5000025749208,,,0:0:0:0:
220,176,12910,2,0,B|233:127|259:86|293:55,1,135.000005149842,,,0:0:0:0:
432,120,13410,1,0,0:0:0:0:
336,140,13576,1,0,0:0:0:0:
364,48,13743,1,0,0:0:0:0:
400,208,13910,6,0,B|395:253|384:297,2,67.5000025749208,,,0:0:0:0:
280,348,14410,1,0,0:0:0:0:
280,348,14576,6,0,B|317:336|356:340,1,67.5000025749208,,,0:0:0:0:
428,356,14910,1,0,0:0:0:0:
328,260,15076,6,0,B|291:248|252:252,1,67.5000025749208,,,0:0:0:0:
176,320,15410,1,0,0:0:0:0:
348,252,15576,6,0,B|360:215|356:176,1,67.5000025749208,,,0:0:0:0:
292,76,15910,5,0,0:0:0:0:
262,61,15993,1,0,0:0:0:0:
228,62,16076,1,8,0:3:0:0:
200,79,16160,1,8,0:3:0:0:
182,108,16243,1,8,0:0:0:0:
181,141,16326,1,0,0:0:0:0:
196,171,16410,1,0,0:0:0:0:
223,190,16493,1,0,0:0:0:0:
256,194,16576,6,0,B|316:180|376:184,1,90,4|0,0:0|0:0,0:0:0:0:
480,200,16910,2,0,B|478:154|468:110,1,90,8|0,0:0|0:0,0:0:0:0:
360,52,17243,1,2,0:0:0:0:
252,128,17410,1,0,0:0:0:0:
396,176,17576,1,8,0:0:0:0:
272,236,17743,6,0,B|259:294|264:352,1,90,0|2,0:0|0:0,0:0:0:0:
352,164,18076,1,0,0:0:0:0:
192,192,18243,1,8,0:0:0:0:
272,52,18410,1,0,0:0:0:0:
360,248,18576,2,0,B|414:260|468:260,1,90,2|0,0:0|0:0,0:0:0:0:
384,76,18910,2,0,B|338:77|294:87,1,90,8|0,0:0|0:0,0:0:0:0:
160,264,19243,6,0,B|119:246|99:201|112:157|143:133,1,135,2|0,0:0|0:0,0:0:0:0:
192,108,19576,2,0,L|292:92,1,90,8|0,0:0|0:0,0:0:0:0:
440,216,19910,2,0,B|447:249|437:281|416:304,1,90,2|0,0:0|0:0,0:0:0:0:
284,260,20243,2,0,B|277:227|287:195|308:172,1,90,8|0,0:0|0:0,0:0:0:0:
460,132,20576,5,2,0:0:0:0:
356,68,20743,1,0,0:0:0:0:
460,16,20910,1,8,0:0:0:0:
376,152,21076,1,0,0:0:0:0:
264,80,21243,1,8,0:3:0:0:
264,80,21326,1,8,0:3:0:0:
264,80,21410,2,0,B|243:135|244:192,1,90,0|8,0:0|0:0,0:0:0:0:
400,252,21743,1,0,0:0:0:0:
400,252,21826,1,0,0:0:0:0:
400,252,21910,6,0,B|356:224|298:240|271:289|280:334,1,180,4|2,0:0|0:0,0:0:0:0:
408,344,22410,1,0,0:0:0:0:
420,236,22576,2,0,B|418:187|408:139,1,90,2|0,0:0|0:0,0:0:0:0:
312,116,22910,1,2,0:0:0:0:
444,48,23076,1,0,0:0:0:0:
320,136,23243,6,0,B|262:133|208:116,1,90,2|0,0:0|0:0,0:0:0:0:
160,56,23576,1,2,0:0:0:0:
64,88,23743,2,0,B|16:117|0:178|26:229|70:251,1,180,,,0:0:0:0:
232,224,24243,2,0,B|185:212|139:204,1,90,2|0,0:0|0:0,0:0:0:0:
172,332,24576,6,0,B|266:318|358:312,1,180,2|2,0:0|0:0,0:0:0:0:
444,344,25076,1,0,0:0:0:0:
416,248,25243,2,0,B|424:184|424:184|408:136|408:136|420:56,1,180,2|2,0:0|0:0,0:0:0:0:
500,128,25743,1,0,0:0:0:0:
336,196,25910,6,0,B|280:184|280:184|152:212,2,180,2|2|2,0:0|0:0|0:0,0:0:0:0:
416,248,26743,1,0,0:0:0:0:
248,232,26910,2,0,B|249:178|264:128,1,90,2|0,0:0|0:0,0:0:0:0:
376,40,27243,6,0,B|420:15|478:37|495:93|473:134,1,180,2|2,0:0|0:0,0:0:0:0:
312,128,27743,1,0,0:0:0:0:
408,104,27910,2,0,B|402:158|388:209,1,90,2|0,0:0|0:0,0:0:0:0:
248,232,28243,2,0,B|236:187|232:143,1,90,2|0,0:0|0:0,0:0:0:0:
344,296,28576,6,0,B|241:303|148:340,1,180,2|2,0:0|0:0,0:0:0:0:
412,336,29076,2,0,B|440:292|423:232|371:207|326:219,1,180,,,0:0:0:0:
240,280,29576,2,0,B|190:294|140:284,1,90,2|0,0:0|0:0,0:0:0:0:
72,224,29910,5,2,0:0:0:0:
128,144,30076,1,0,0:0:0:0:
72,224,30243,1,2,0:0:0:0:
212,192,30410,1,0,0:0:0:0:
96,120,30576,2,0,B|98:67|120:20,1,90,2|0,0:0|0:0,0:0:0:0:
208,100,30910,5,0,0:0:0:0:
148,256,31076,1,8,0:0:0:0:
148,256,31910,5,8,0:0:0:0:
176,252,31993,1,8,0:0:0:0:
204,248,32076,1,8,0:0:0:0:
232,244,32160,1,8,0:0:0:0:
256,252,32243,5,8,0:0:0:0:
284,248,32326,1,8,0:0:0:0:
312,244,32410,1,8,0:0:0:0:
340,240,32493,1,8,0:0:0:0:
364,248,32576,6,0,B|409:217|417:153|381:107|334:96,1,180,4|8,0:0|0:0,0:0:0:0:
232,112,33076,1,0,0:0:0:0:
320,176,33243,1,2,0:0:0:0:
176,252,33410,1,0,0:0:0:0:
244,88,33576,1,8,0:0:0:0:
128,164,33743,1,0,0:0:0:0:
256,280,33910,6,0,B|320:265|384:264,1,90,2|0,0:0|0:0,0:0:0:0:
444,308,34243,1,8,0:0:0:0:
320,176,34410,2,0,B|325:122|340:72,1,90,0|2,0:0|0:0,0:0:0:0:
448,32,34743,1,0,0:0:0:0:
324,76,34910,1,8,0:0:0:0:
472,140,35076,1,0,0:0:0:0:
344,220,35243,6,0,B|253:204|164:208,2,180,2|8|2,0:0|0:0|0:0,0:0:0:0:
248,176,36076,1,0,0:0:0:0:
432,208,36243,1,8,0:0:0:0:
340,116,36410,1,0,0:0:0:0:
276,284,36576,6,0,B|282:340|296:393,1,90,2|0,0:0|0:0,0:0:0:0:
432,224,36910,2,0,B|426:280|412:333,1,90,8|0,0:0|0:0,0:0:0:0:
312,188,37243,1,2,0:0:0:0:
416,104,37410,1,0,0:0:0:0:
504,248,37576,1,8,0:0:0:0:
384,172,37743,1,0,0:0:0:0:
380,312,37910,5,2,0:0:0:0:
504,224,38076,1,0,0:0:0:0:
328,240,38243,2,0,B|275:234|223:236,1,90,8|0,0:0|0:0,0:0:0:0:
92,276,38576,2,0,B|90:230|96:186,1,90,2|0,0:0|0:0,0:0:0:0:
224,220,38910,1,8,0:0:0:0:
224,220,39076,1,0,0:0:0:0:
180,316,39243,5,2,0:0:0:0:
68,260,39410,1,0,0:0:0:0:
236,200,39576,1,8,0:0:0:0:
168,344,39743,2,0,B|150:251|152:160,1,180,,,0:0:0:0:
304,72,40243,2,0,B|315:137|315:201,1,90,8|0,0:0|0:0,0:0:0:0:
288,260,40576,5,2,0:0:0:0:
404,180,40743,1,0,0:0:0:0:
224,116,40910,1,8,0:0:0:0:
364,244,41076,1,0,0:0:0:0:
192,288,41243,2,0,B|196:225|216:168,1,90,2|0,0:0|0:0,0:0:0:0:
206,199,41493,1,8,0:3:0:0:
206,199,41576,1,8,0:0:0:0:
224,372,41743,6,0,B|176:391|123:372|97:326|100:282,1,180,4|0,0:0|0:0,0:0:0:0:
120,132,42243,1,12,0:0:0:0:
276,256,42410,1,0,0:0:0:0:
276,256,42493,1,0,0:0:0:0:
276,256,42576,1,8,0:3:0:0:
120,224,42743,1,4,0:3:0:0:
216,104,42910,1,8,0:3:0:0:
40,176,43076,1,4,0:3:0:0:
206,199,43243,6,0,B|234:125|232:48,1,135.000005149842,4|0,0:0|0:0,0:0:0:0:
306,185,43743,1,0,0:0:0:0:
306,185,43910,2,0,B|278:259|280:336,1,135.000005149842,8|0,0:0|0:0,0:0:0:0:
376,300,44410,6,0,B|387:342|384:384,1,67.5000025749208,0|2,0:0|0:0,0:0:0:0:
472,332,44743,2,0,B|511:296|510:235|472:200,1,135.000005149842,8|0,0:0|0:0,0:0:0:0:
400,172,45243,2,0,L|324:168,1,67.5000025749208,8|0,0:0|0:0,0:0:0:0:
196,131,45576,2,0,L|264:128,1,67.5000025749208,,,0:0:0:0:
132,180,45910,6,0,B|92:135|106:61|170:31|222:51,1,202.500007724762,4|2,0:0|0:0,0:0:0:0:
264,128,46576,2,0,L|416:120,1,135.000005149842,8|0,0:0|0:0,0:0:0:0:
484,136,47076,1,0,0:0:0:0:
332,68,47243,5,2,0:0:0:0:
332,68,47410,2,0,B|365:28|425:27|460:64,1,135.000005149842,8|0,0:3|0:0,0:0:0:0:
484,136,47910,2,0,L|476:204,1,67.5000025749208,8|0,0:0|0:0,0:0:0:0:
412,252,48243,1,0,0:0:0:0:
412,252,48410,1,0,0:0:0:0:
452,324,48576,6,0,B|409:355|351:345|320:305,1,135.000005149842,4|0,0:0|0:0,0:0:0:0:
288,244,49076,1,2,0:0:0:0:
288,244,49243,2,0,B|212:263|136:256,1,135.000005149842,8|0,0:0|0:0,0:0:0:0:
84,216,49743,1,0,0:0:0:0:
140,48,49910,5,2,0:0:0:0:
140,48,50076,2,0,B|176:86|178:142|153:183,1,135.000005149842,8|0,0:0|0:0,0:0:0:0:
144,272,50576,2,0,L|4:260,2,135.000005149842,8|0|4,0:0|0:0|0:0,0:0:0:0:
280,184,51576,5,0,0:0:0:0:
280,348,51910,1,8,0:0:0:0:
144,260,52243,2,0,B|147:211|152:163,1,67.5000025749208,,,0:0:0:0:
216,80,52576,5,8,0:3:0:0:
240,92,52660,1,8,0:3:0:0:
268,96,52743,1,2,0:0:0:0:
296,96,52826,1,2,0:0:0:0:
324,92,52910,2,0,B|378:86|429:72,1,90,8|4,0:0|0:0,0:0:0:0:
300,204,53243,1,8,0:0:0:0:
396,212,53410,6,0,L|404:168,1,45,8|8,0:0|0:0,0:0:0:0:
330,288,53576,2,0,L|288:304,1,45,8|8,0:0|0:0,0:0:0:0:
421,307,53743,2,0,L|456:336,1,45,8|8,0:0|0:0,0:0:0:0:
500,200,53910,6,0,B|494:147|488:94,1,90,4|0,0:0|0:0,0:0:0:0:
400,44,54243,1,8,0:0:0:0:
320,5,54410,1,0,0:0:0:0:
320,5,54493,1,0,0:0:0:0:
320,5,54576,2,0,B|307:34|310:66|324:92,1,90,2|0,0:0|0:0,0:0:0:0:
416,232,54910,2,0,B|429:203|426:171|412:145,1,90,8|0,0:0|0:0,0:0:0:0:
232,224,55243,5,2,0:0:0:0:
320,308,55410,1,0,0:0:0:0:
348,188,55576,1,8,0:0:0:0:
236,308,55743,1,0,0:0:0:0:
236,308,55826,1,0,0:0:0:0:
236,308,55910,2,0,B|187:306|139:296,1,90,2|0,0:0|0:0,0:0:0:0:
32,220,56243,1,8,0:0:0:0:
100,368,56410,1,0,0:0:0:0:
100,368,56493,1,0,0:0:0:0:
100,368,56576,6,0,B|102:321|112:276,1,90,2|0,0:0|0:0,0:0:0:0:
176,184,56910,1,8,0:0:0:0:
316,256,57076,2,0,L|256:244,1,45,,,0:0:0:0:
212,344,57243,1,2,0:0:0:0:
336,280,57410,1,0,0:0:0:0:
164,212,57576,1,8,0:0:0:0:
316,132,57743,1,0,0:0:0:0:
228,232,57910,6,0,B|232:286|244:337,1,90,4|8,0:0|0:0,0:0:0:0:
364,348,58243,1,8,0:0:0:0:
384,192,58410,1,8,0:0:0:0:
248,240,58576,1,8,0:0:0:0:
408,292,58743,1,8,0:0:0:0:
228,232,58910,1,8,0:0:0:0:
336,360,59076,1,8,0:0:0:0:
484,224,59243,6,0,B|479:166|464:112,1,107.999996704102,6|0,0:0|0:0,0:0:0:0:
264,28,59910,2,0,B|269:86|284:140,1,107.999996704102,2|0,0:1|0:0,0:0:0:0:
192,292,60576,5,2,0:1:0:0:
320,92,60910,1,0,0:0:0:0:
280,228,61243,2,0,B|230:212|180:208,2,80.9999975280763,8|8|8,0:3|0:3|0:3,0:0:0:0:
344,336,61910,6,0,B|377:347|411:337|432:312,1,72,4|0,0:0|0:0,0:0:0:0:
468,164,62243,2,0,B|435:153|401:163|380:188,1,72,2|0,1:0|0:0,0:0:0:0:
268,244,62576,1,8,0:0:0:0:
340,112,62743,5,0,0:0:0:0:
340,112,62826,1,0,0:0:0:0:
340,112,62910,1,0,0:0:0:0:
372,256,63076,1,2,0:3:0:0:
372,256,63576,6,0,B|337:212|349:149|396:120,1,144,,,0:0:0:0:
417,113,64243,2,0,B|424:149|412:184,1,72,,,0:0:0:0:
372,256,64576,6,0,B|415:283|471:269|499:222|492:178,1,180,4|8,0:0|0:0,0:0:0:0:
436,32,65076,1,0,0:0:0:0:
412,188,65243,2,0,B|364:178|316:176,1,90,2|0,0:0|0:0,0:0:0:0:
220,112,65576,1,8,0:0:0:0:
352,60,65743,5,0,0:0:0:0:
288,188,65910,1,2,0:0:0:0:
152,48,66076,2,0,B|125:82|122:127|140:163,1,90,0|8,0:0|0:0,0:0:0:0:
348,248,66410,2,0,B|375:214|378:169|360:133,1,90,,,0:0:0:0:
220,112,66743,1,0,0:0:0:0:
228,288,66910,1,8,0:0:0:0:
380,196,67076,1,0,0:0:0:0:
168,228,67243,6,0,B|135:261|133:312|161:350|199:363,1,135,2|0,0:0|0:0,0:0:0:0:
260,368,67576,2,0,L|352:352,1,90,8|0,0:0|0:0,0:0:0:0:
480,340,67910,1,2,0:0:0:0:
320,280,68076,1,0,0:0:0:0:
456,364,68243,1,8,0:0:0:0:
412,180,68410,6,0,B|402:237|400:293,1,90,0|2,0:0|0:0,0:0:0:0:
300,108,68743,2,0,B|290:165|288:221,1,90,0|8,0:0|0:0,0:0:0:0:
320,280,69076,1,0,0:0:0:0:
196,348,69243,1,2,0:0:0:0:
196,204,69410,1,0,0:0:0:0:
200,220,69493,1,0,0:0:0:0:
204,236,69576,1,8,0:0:0:0:
304,352,69743,1,0,0:0:0:0:
92,368,69910,6,0,B|96:274|112:182,1,180,4|8,0:0|0:0,0:0:0:0:
272,116,70410,1,0,0:0:0:0:
293,254,70576,2,0,B|244:246|196:234,1,90,2|0,0:0|0:0,0:0:0:0:
384,292,70910,1,8,0:0:0:0:
400,288,70993,1,0,0:0:0:0:
416,284,71076,1,0,0:0:0:0:
412,56,71243,6,0,B|361:70|330:120|338:174|371:207,1,180,2|8,0:0|0:0,0:0:0:0:
496,260,71743,1,0,0:0:0:0:
368,380,71910,1,2,0:0:0:0:
472,344,72076,1,0,0:0:0:0:
304,272,72243,1,8,0:0:0:0:
432,144,72410,1,0,0:0:0:0:
316,296,72576,6,0,B|253:285|192:288,1,90,2|0,0:0|0:0,0:0:0:0:
96,200,72910,1,8,0:0:0:0:
152,368,73076,1,0,0:0:0:0:
224,208,73243,2,0,L|180:224,1,45,,,0:0:0:0:
48,300,73410,2,0,L|92:316,1,45,,,0:0:0:0:
228,360,73576,1,8,0:0:0:0:
4,232,73743,1,0,0:0:0:0:
4,232,73826,1,0,0:0:0:0:
4,232,73910,6,0,B|4:182|16:136,1,90,4|0,0:0|0:0,0:0:0:0:
88,44,74243,1,8,0:0:0:0:
136,208,74410,1,0,0:0:0:0:
136,208,74493,1,0,0:0:0:0:
136,208,74576,1,8,0:0:0:0:
188,56,74743,6,0,L|200:120,1,45,8|8,0:0|0:0,0:0:0:0:
288,192,74910,2,0,L|280:148,1,45,8|8,0:0|0:0,0:0:0:0:
368,88,75076,2,0,L|380:152,1,45,8|8,0:0|0:0,0:0:0:0:
480,240,75243,6,0,B|467:289|417:319|365:305|337:270,1,180,4|8,0:0|0:0,0:0:0:0:
368,88,75743,1,0,0:0:0:0:
404,228,75910,2,0,B|400:280|384:328,1,90,2|0,0:0|0:0,0:0:0:0:
248,236,76243,1,8,0:0:0:0:
368,160,76410,5,0,0:0:0:0:
256,80,76576,1,2,0:0:0:0:
160,248,76743,2,0,L|256:236,1,90,0|8,0:0|0:0,0:0:0:0:
428,304,77076,2,0,L|332:316,1,90,0|2,0:0|0:0,0:0:0:0:
204,328,77410,1,0,0:0:0:0:
328,240,77576,1,8,0:0:0:0:
184,160,77743,1,0,0:0:0:0:
224,352,77910,6,0,B|239:273|240:195,1,135,2|0,0:0|0:0,0:0:0:0:
184,160,78243,2,0,B|185:105|208:56,1,90,8|0,0:0|0:0,0:0:0:0:
336,68,78576,1,2,0:0:0:0:
212,252,78743,2,0,B|157:251|108:228,1,90,0|8,0:0|0:0,0:0:0:0:
296,144,79076,6,0,B|351:145|400:168,1,90,0|2,0:0|0:0,0:0:0:0:
464,200,79410,1,0,0:0:0:0:
360,56,79576,1,8,0:0:0:0:
480,216,79743,2,0,B|425:217|376:240,1,90,0|2,0:0|0:0,0:0:0:0:
276,328,80076,1,0,0:0:0:0:
280,312,80160,1,0,0:0:0:0:
284,296,80243,1,8,0:0:0:0:
376,336,80410,1,0,0:0:0:0:
188,300,80576,6,0,B|145:282|99:287,1,90,4|0,0:0|0:0,0:0:0:0:
176,36,80910,1,8,0:0:0:0:
252,192,81076,1,0,0:0:0:0:
92,204,81243,2,0,B|98:150|112:99,1,90,2|0,0:0|0:0,0:0:0:0:
260,44,81576,1,8,0:0:0:0:
264,64,81660,1,0,0:0:0:0:
268,80,81743,1,0,0:0:0:0:
260,212,81910,6,0,B|300:245|358:243|398:206|408:162,1,180,2|8,0:0|0:0,0:0:0:0:
360,68,82410,1,0,0:0:0:0:
472,224,82576,1,0,0:0:0:0:
320,144,82743,1,0,0:0:0:0:
480,44,82910,2,0,B|476:97|456:144,1,90,8|0,0:0|0:0,0:0:0:0:
292,140,83243,6,0,B|251:118|200:135|177:178|184:218,1,135,2|0,0:0|0:0,0:0:0:0:
112,112,83576,2,0,L|212:96,1,90,8|0,0:0|0:0,0:0:0:0:
316,68,83910,1,2,0:0:0:0:
472,120,84076,1,0,0:0:0:0:
380,8,84243,1,8,0:0:0:0:
492,120,84410,1,0,0:0:0:0:
340,224,84576,5,8,0:0:0:0:
384,108,84743,1,4,0:3:0:0:
472,280,84910,2,0,B|418:288|368:308,1,90,8|4,0:0|0:3,0:0:0:0:
256,360,85243,1,8,0:0:0:0:
224,344,85326,1,0,0:0:0:0:
188,336,85410,1,0,0:0:0:0:
152,340,85493,1,0,0:0:0:0:
120,352,85576,1,8,0:0:0:0:
84,352,85660,1,0,0:0:0:0:
52,336,85743,1,0,0:0:0:0:
36,304,85826,1,0,0:0:0:0:
36,268,85910,6,0,L|56:156,1,90,4|0,0:0|0:0,0:0:0:0:
80,72,86243,1,2,0:0:0:0:
157,251,86410,6,0,L|187:335,1,90,4|0,0:0|0:0,0:0:0:0:
312,240,86743,1,2,0:0:0:0:
452,308,86910,5,4,0:0:0:0:
256,192,86993,12,0,88743,0:0:0:0:
